extratorrent - A Fan Made Alternative Login   |   Register
Important Information
Registrations are open now
-------------------------------------

Please click here to register with Extratorrent2 to recieve latest updates, add bookmarks and to post comments.

Friends
Friends

1) Filebebo
-------------------------------------
2) MoviesDig
-------------------------------------
3) Torrentz2.cc
-------------------------------------
4) Torrents.me

Extratorrent2 > Categories > Movies > Deep Blue Sea 2 2018 720p BRRip x264 ESub [MW] torrent


Browse Movies torrents

Deep Blue Sea 2 2018 720p BRRip x264 ESub [MW] torrent


Download torrent: Download Deep Blue Sea 2 2018 720p BRRip x264 ESub [MW] torrent Magnet link Bookmark Torrent: Deep Blue Sea 2 2018 720p BRRip x264 ESub [MW]   Deep Blue Sea 2 2018 720p BRRip x264 ESub [MW] torrent
Info hash: 59685BBA4E9FA68AA8F6CEA14029652FE6D0DAD7
Category: Categories > Movies
Trackers:
View all torrent trackers >
Health:
 seeds: 22 ,  leechers: 12 |  Update >
Torrent language: English English
Total Size: 993.6 MB
Files List:
1    View torrent files >
Uploader:
moviezworldz
Torrent added: April 16, 2018, 4:31 am
Tags: Action, Horror, Sci-Fi
Users rating: ---, not rated. please login to rate.

Download Deep Blue Sea 2 2018 720p BRRip x264 ESub [MW] torrent



Torrent Description





General
Format : Matroska
Format version : Version 4 / Version 2
File size : 994 MiB
Duration : 1 h 33 min
Overall bit rate : 1 478 kb/s

Video
ID : 1
Format : AVC
Format/Info : Advanced Video Codec
Format profile :
Format settings : CABAC / 4 Ref Frames
Format settings, CABAC : Yes
Format settings, RefFrames : 4 frames
Codec ID : V_MPEG4/ISO/AVC
Duration : 1 h 33 min
Bit rate : 1 400 kb/s
Width : 1 280 pixels
Height : 720 pixels
Display aspect ratio : 16:9
Frame rate mode : Constant
Frame rate : 23.976 (24000/1001) FPS
Color space : YUV
Chroma subsampling : 4:2:0
Bit depth : 8 bits
Scan type : Progressive
Bits/(Pixel*Frame) : 0.063
Stream size : 929 MiB (93%)
Writing library : x264 core 155 r2893 b00bcaf
Default : Yes
Forced : No

Audio
ID : 2
Format : AAC
Format/Info : Advanced Audio Codec
Format profile : HE-AAC / LC
Format settings : Explicit
Codec ID : A_AAC-2
Duration : 1 h 33 min
Bit rate : 96.0 kb/s
Channel(s) : 2 channels
Channel positions : Front: L R
Sampling rate : 48.0 kHz / 24.0 kHz
Frame rate : 23.438 FPS (1024 SPF)
Compression mode : Lossy
Stream size : 63.7 MiB (6%)
Language : English
Default : Yes
Forced : No

Text
ID : 3
Format : UTF-8
Codec ID : S_TEXT/UTF8
Codec ID/Info : UTF-8 Plain Text
Duration : 1 h 32 min
Bit rate : 51 b/s
Count of elements : 1035
Stream size : 34.8 KiB (0%)
Language : English
Default : Yes
Forced : No













Download Deep Blue Sea 2 2018 720p BRRip x264 ESub [MW] torrent


Related Torrents


Comments   (please login to add your comment!)

jackbox     041018     momoka sakai     lucia deville double anal training     madchen     ava addams and james deen     boruto naruto next generations 18     ritual 2017     ethical     family     apps     castingcouch stacey     peepli     tan     bangladeshi     casting hard     hola     milton twins     moms got a meeting     telugu 2017     dredd dior     american horror     macgyver s02e16     jux 964     


Home - Browse Torrents

Made with love by an Extratorrent Fan!