extratorrent - A Fan Made Alternative Login   |   Register
Important Information
Registrations are open now
-------------------------------------

Please click here to register with Extratorrent2 to recieve latest updates, add bookmarks and to post comments.

Friends
Friends

1) Filebebo
-------------------------------------
2) MoviesDig
-------------------------------------
3) Torrentz2.cc
-------------------------------------
4) Torrents.me

Extratorrent2 > Categories > Movies > Deep Blue Sea 2 2018 1080p BRRip x264 ESub [MW] torrent


Browse Movies torrents

Deep Blue Sea 2 2018 1080p BRRip x264 ESub [MW] torrent


Download torrent: Download Deep Blue Sea 2 2018 1080p BRRip x264 ESub [MW] torrent Magnet link Bookmark Torrent: Deep Blue Sea 2 2018 1080p BRRip x264 ESub [MW]   Deep Blue Sea 2 2018 1080p BRRip x264 ESub [MW] torrent
Info hash: 4E0F88C7BC68186403A96F9405EEEA44C2A713E9
Category: Categories > Movies
Trackers:
View all torrent trackers >
Health:
 seeds: 35 ,  leechers: 63 |  Update >
Torrent language: English English
Total Size: 1.8 GB
Files List:
1    View torrent files >
Uploader:
moviezworldz
Torrent added: April 16, 2018, 4:31 am
Tags: Action, Horror, Sci-Fi
Users rating: ---, not rated. please login to rate.

Download Deep Blue Sea 2 2018 1080p BRRip x264 ESub [MW] torrent



Torrent Description





General
Format : Matroska
Format version : Version 4 / Version 2
File size : 1.80 GiB
Duration : 1 h 33 min
Overall bit rate : 2 747 kb/s

Video
ID : 1
Format : AVC
Format/Info : Advanced Video Codec
Format profile :
Format settings : CABAC / 4 Ref Frames
Format settings, CABAC : Yes
Format settings, RefFrames : 4 frames
Codec ID : V_MPEG4/ISO/AVC
Duration : 1 h 33 min
Bit rate : 2 400 kb/s
Width : 1 920 pixels
Height : 1 080 pixels
Display aspect ratio : 16:9
Frame rate mode : Constant
Frame rate : 23.976 (24000/1001) FPS
Color space : YUV
Chroma subsampling : 4:2:0
Bit depth : 8 bits
Scan type : Progressive
Bits/(Pixel*Frame) : 0.048
Stream size : 1.55 GiB (86%)
Writing library : x264 core 155 r2893 b00bcaf
Default : Yes
Forced : No

Audio
ID : 2
Format : AC-3
Format/Info : Audio Coding 3
Codec ID : A_AC3
Duration : 1 h 33 min
Bit rate mode : Constant
Bit rate : 384 kb/s
Channel(s) : 6 channels
Channel positions : Front: L C R, Side: L R, LFE
Sampling rate : 48.0 kHz
Frame rate : 31.250 FPS (1536 SPF)
Bit depth : 16 bits
Compression mode : Lossy
Stream size : 258 MiB (14%)
Language : English
Service kind : Complete Main
Default : Yes
Forced : No

Text
ID : 3
Format : UTF-8
Codec ID : S_TEXT/UTF8
Codec ID/Info : UTF-8 Plain Text
Duration : 1 h 32 min
Bit rate : 51 b/s
Count of elements : 1035
Stream size : 34.8 KiB (0%)
Language : English
Default : Yes
Forced : No












Download Deep Blue Sea 2 2018 1080p BRRip x264 ESub [MW] torrent


Related Torrents


Comments   (please login to add your comment!)


Home - Browse Torrents

Made with love by an Extratorrent Fan!