extratorrent - A Fan Made Alternative Login   |   Register
Important Information
Registrations are open now
-------------------------------------

Please click here to register with Extratorrent2 to recieve latest updates, add bookmarks and to post comments.

Friends
Friends

1) Filebebo
-------------------------------------
2) MoviesDig
-------------------------------------
3) Torrentz2.cc
-------------------------------------
4) Torrents.me

Extratorrent2 > Categories > Movies > Hellraiser: Judgement(2018)1080p Blu-Ray Rip[DaScubaDude] torrent


Browse Movies torrents

Hellraiser: Judgement(2018)1080p Blu-Ray Rip[DaScubaDude] torrent


Download torrent: Download Hellraiser: Judgement(2018)1080p Blu-Ray Rip[DaScubaDude] torrent Magnet link Bookmark Torrent: Hellraiser: Judgement(2018)1080p Blu-Ray Rip[DaScubaDude]   Hellraiser: Judgement(2018)1080p Blu-Ray Rip[DaScubaDude] torrent
Info hash: 35A8A519EBEBBF928485CAE9831A623D7EC037E2
Category: Categories > Movies
Trackers:
View all torrent trackers >
Health:
 seeds: 0 ,  leechers: 11 |  Update >
Torrent language: English English
Total Size: 2.4 GB
Files List:
6    View torrent files >
Uploader:
dascubadude
Torrent added: April 16, 2018, 3:31 am
Tags: Horror, , Thriller
Users rating: ---, not rated. please login to rate.

Download Hellraiser: Judgement(2018)1080p Blu-Ray Rip[DaScubaDude] torrent



Torrent Description


[youtube]ttgFpfpBgUw[/youtube]
Hellraiser: Judgment (2018)
Not Rated | 1h 21min | Horror | Video 3 February 2018
General
Complete name : Hellraiser Judgement\Hellraiser Judgment T00-1.m4v
Format : MPEG-4
Format profile : Base Media / Version 2
Codec ID : mp42 (isom/iso2/avc1/mp41)
File size : 2.39 GiB
Duration : 1 h 21 min
Overall bit rate mode : Variable
Overall bit rate : 4 211 kb/s
Movie name : Hellraiser Judgment
Encoded date : UTC 2018-04-15 08:50:25
Tagged date : UTC 2018-04-15 08:50:25
Writing application : HandBrake 1.0.7 2017040900

Video
ID : 1
Format : AVC
Format/Info : Advanced Video Codec
Format profile :
Format settings : CABAC / 4 Ref Frames
Format settings, CABAC : Yes
Format settings, RefFrames : 4 frames
Codec ID : avc1
Codec ID/Info : Advanced Video Coding
Duration : 1 h 21 min
Bit rate : 4 045 kb/s
Width : 1 920 pixels
Height : 1 080 pixels
Display aspect ratio : 16:9
Frame rate mode : Variable
Frame rate : 23.976 (24000/1001) FPS
Minimum frame rate : 23.974 FPS
Maximum frame rate : 23.981 FPS
Color space : YUV
Chroma subsampling : 4:2:0
Bit depth : 8 bits
Scan type : Progressive
Bits/(Pixel*Frame) : 0.081
Stream size : 2.29 GiB (96%)
Writing library : x264 core 148 r2708 86b7198
Encoding settings : cabac=1 / ref=2 / deblock=1:0:0 / analyse=0x1:0x111 / me=hex / subme=6 / psy=1 / psy_rd=1.00:0.00 / mixed_ref=1 / me_range=16 / chroma_me=1 / trellis=1 / 8x8dct=0 / cqm=0 / deadzone=21,11 / fast_pskip=1 / chroma_qp_offset=-2 / threads=3 / lookahead_threads=1 / sliced_threads=0 / nr=0 / decimate=1 / interlaced=0 / bluray_compat=0 / constrained_intra=0 / bframes=3 / b_pyramid=2 / b_adapt=1 / b_bias=0 / direct=1 / weightb=1 / open_gop=0 / weightp=1 / keyint=240 / keyint_min=24 / scenecut=40 / intra_refresh=0 / rc_lookahead=30 / rc=crf / mbtree=1 / crf=22.0 / qcomp=0.60 / qpmin=0 / qpmax=69 / qpstep=4 / vbv_maxrate=20000 / vbv_bufsize=25000 / crf_max=0.0 / nal_hrd=none / filler=0 / ip_ratio=1.40 / aq=1:1.00
Encoded date : UTC 2018-04-15 08:50:25
Tagged date : UTC 2018-04-15 08:50:25
Color range : Limited
Color primaries : BT.709
Transfer characteristics : BT.709
Matrix coefficients : BT.709
Menus : 3

Audio
ID : 2
Format : AAC
Format/Info : Advanced Audio Codec
Format profile : LC
Codec ID : mp4a-40-2
Duration : 1 h 21 min
Bit rate mode : Variable
Bit rate : 160 kb/s
Channel(s) : 2 channels
Channel positions : Front: L R
Sampling rate : 48.0 kHz
Frame rate : 46.875 FPS (1024 SPF)
Compression mode : Lossy
Stream size : 92.9 MiB (4%)
Title : Stereo / Stereo
Language : English
Default : Yes
Alternate group : 1
Encoded date : UTC 2018-04-15 08:50:25
Tagged date : UTC 2018-04-15 08:50:25
Menus : 3

Menu
ID : 3
Codec ID : text
Duration : 1 h 21 min
Language : English
Encoded date : UTC 2018-04-15 08:50:25
Tagged date : UTC 2018-04-15 08:50:25
Menu For : 1,2
00:00:00.000 : Chapter 1
00:05:49.724 : Chapter 2
00:12:04.933 : Chapter 3
00:15:52.618 : Chapter 4
00:21:35.085 : Chapter 5
00:26:13.530 : Chapter 6
00:31:02.152 : Chapter 7
00:35:51.024 : Chapter 8
00:41:51.259 : Chapter 9
00:48:38.541 : Chapter 10
00:53:17.653 : Chapter 11
00:58:52.863 : Chapter 12
01:02:25.200 : Chapter 13
01:06:47.587 : Chapter 14
01:12:42.859 : Chapter 15
01:17:07.873 : Chapter 16
Bit rate mode : VBR


Download Hellraiser: Judgement(2018)1080p Blu-Ray Rip[DaScubaDude] torrent




Comments   (please login to add your comment!)

italian 2018     ryan impact of you     jezabel vessir toys     nintendo 3ds     carrie ashton     the mountain between us 2017 x265     heels     family guy     ghost wars s01e07     prospect     public     paipan     the ts     ddr bluray     cadey     my step sister wears cute panties     rhinestone 1984     baretwinks     silverrg     private gold     padmaavat     a single life     airheads     pick up lines     


Home - Browse Torrents

Made with love by an Extratorrent Fan!