extratorrent - A Fan Made Alternative Login   |   Register
Important Information
Registrations are open now
-------------------------------------

Please click here to register with Extratorrent2 to recieve latest updates, add bookmarks and to post comments.

Friends
Friends

1) Filebebo
-------------------------------------
2) MoviesDig
-------------------------------------
3) Torrentz2.cc
-------------------------------------
4) Torrents.me

Extratorrent2 > Categories > Movies > Shandas River 2018 HDRip x264 AAC [MW] torrent


Browse Movies torrents

Shandas River 2018 HDRip x264 AAC [MW] torrent


Download torrent: Download Shandas River 2018 HDRip x264 AAC [MW] torrent Magnet link Bookmark Torrent: Shandas River 2018 HDRip x264 AAC [MW]   Shandas River 2018 HDRip x264 AAC [MW] torrent
Info hash: 3D8F96E5A4687C18801608F82C38C8CF6A37D4DB
Category: Categories > Movies
Trackers:
View all torrent trackers >
Health:
 seeds: 9 ,  leechers: 6 |  Update >
Torrent language: English English
Total Size: 704.9 MB
Files List:
1    View torrent files >
Uploader:
moviezworldz
Torrent added: April 16, 2018, 3:31 am
Tags: Horror, Thriller
Users rating: ---, not rated. please login to rate.

Download Shandas River 2018 HDRip x264 AAC [MW] torrent



Torrent Description






General
Format : Matroska
Format version : Version 4 / Version 2
File size : 705 MiB
Duration : 1 h 31 min
Overall bit rate : 1 081 kb/s

Video
ID : 1
Format : AVC
Format/Info : Advanced Video Codec
Format profile :
Format settings : CABAC / 4 Ref Frames
Format settings, CABAC : Yes
Format settings, RefFrames : 4 frames
Codec ID : V_MPEG4/ISO/AVC
Duration : 1 h 31 min
Bit rate : 1 000 kb/s
Width : 720 pixels
Height : 400 pixels
Display aspect ratio : 16:9
Frame rate mode : Constant
Frame rate : 25.000 FPS
Color space : YUV
Chroma subsampling : 4:2:0
Bit depth : 8 bits
Scan type : Progressive
Bits/(Pixel*Frame) : 0.139
Stream size : 642 MiB (91%)
Writing library : x264 core 155 r2893 b00bcaf
Default : Yes
Forced : No

Audio
ID : 2
Format : AAC
Format/Info : Advanced Audio Codec
Format profile : HE-AAC / LC
Format settings : Explicit
Codec ID : A_AAC-2
Duration : 1 h 31 min
Bit rate : 96.0 kb/s
Channel(s) : 2 channels
Channel positions : Front: L R
Sampling rate : 48.0 kHz / 24.0 kHz
Frame rate : 23.438 FPS (1024 SPF)
Compression mode : Lossy
Stream size : 61.7 MiB (9%)
Language : English
Default : Yes
Forced : No












Download Shandas River 2018 HDRip x264 AAC [MW] torrent


Related Torrents


Comments   (please login to add your comment!)

italian 2018     ryan impact of you     jezabel vessir toys     nintendo 3ds     carrie ashton     the mountain between us 2017 x265     heels     family guy     ghost wars s01e07     prospect     public     paipan     the ts     ddr bluray     cadey     my step sister wears cute panties     rhinestone 1984     baretwinks     silverrg     private gold     padmaavat     a single life     airheads     pick up lines     


Home - Browse Torrents

Made with love by an Extratorrent Fan!